Jay Z Discography Flac


Momentum- Jay - z ft. Another Lev el Ft Jay-Z ‎ – Be Alone No More (CD1 + CD2) Label: Northwestside Records ‎– 74321 55198 2 / 74321 5519. Download the Philip Sayce__Discography Torrent or choose other Philip Sayce__Discography torrent downloads Philip Sayce Group. 01 MB Kanye West-Studio Discography-FLAC/Kanye West - 2010 - My Beautiful Dark Twisted Fantasy [FLAC]/04 - All of the Lights (Interlude). 1 FLAC] An obscure compilation featuring some absolutely smooth music for warm and cozy holiday season evenings of drinking coffee with Irish Cream, or floating down wintery roads reclined in the plush seat of a luxury. Discography by Linkin Park (2000-2017, CD Flac) - Release Date: 2000-2017 Genre: Alt. 98 GiB, ULed by vtwin88cube: 10: 5: Audio Underworld Discography (1988-2011) FLAC. Paying supporters also get unlimited streaming via. Talib Kweli and Common) 10 - Workout Plan 11 - The New Workout Plan 12 - Slow Jamz (feat. Bellows Jay-Z: ‘If you escaped what I’ve escaped / You’d be in Paris getting fucked up too / Let’s get faded, Le Meurice for like five days’. Download Jay Z Fast and for Free. Click "Order by Relevance" for exact results Minimum search is atleast 3 characters Use "word1 word2" for phrase search Use +word to force it in results Use -word to remove it from results. 70 KB] (2004) Collision Course (Japanese Edition). Tom Ford (Chopped and Screwed) 4. Masamune Problems (Jay-Z vs. We provide fast downloadable and reliable service for you. Jay Z’s streaming service, Tidal, launched amid a torrent of celebrity support yesterday, hoping to draw attention and subscribers with its “artist owned” model and its famous backers. 2007 - Rihanna feat. Drake Discography (2009 2015) [FLAC] DOWNLOAD (Mirror #1) Jeeja Hai Rangeela 2 Full Movie Hd 1080p Free Download Utorrent Movies. Jay Z’s streaming service, Tidal, launched amid a torrent of celebrity support yesterday, hoping to draw attention and subscribers with its “artist owned” model and its famous backers. Download Beyoncé - iTunes Discography (2003-2016) AAC or any other file from Music category. Includes CD & Artwork. Download Disarmonia Mundi - Discography torrent or any other torrent from Other Music category. Paying supporters also get unlimited streaming via the free Bandcamp app. Ain't No Love 10. Home Lossless CD Flac Discography by Beyoncé (2002-2016, CD Flac + MP3) Discography by Beyoncé (2002-2016, CD Flac + MP3) Posted By: Ra on: March 20, 2018 In: CD Flac , Discography , Lossless , MP3 Tags: Beyoncé , Discography. top bittorent movies, top bittorent series and the most popular torrent files in Libya. Jay-Z) by Pollie Pop, released 01 February 2002. Ezra Furman - Twelve Nudes (2019) Album Download mp3 m4a itunes. Żaden z plików nie znajduje się na serwerze. Metallica Black Album FLAC Metallica 1996. My Hood - Acapella 07. different day 6. Download the Philip Sayce__Discography Torrent or choose other Philip Sayce__Discography torrent downloads Philip Sayce Group. Public Chrono Announcement (Jay-Z vs. Includes unlimited streaming of One Time 4 Ya Mind (Remix Series Vol. DEAD BE4 6. Traces - The Rivers. Rock Audio Codec: Flac Rip Type: tracks & tracks +. 0 % Test CRC F93C7837 Copy CRC F93C7837 Track not present in AccurateRip database Copy OK Track 10 Filename C:\EACRips\Jay-z - The Hits Collection, Vol1 (2010) [FLAC]\10 - Dirt Off Your. We provide fast downloadable and reliable service for you. Buy 'Numb/Encore: MTV Ultimate Mash-Ups Presents Collision Course by Jay-Z/ Linkin Park' MP3 download online from 7digital United States - Over 30 million high quality tracks in our store. Por favor, utilize fontes apropriadas contendo referência ao título, autor, data e fonte de publicação do trabalho para que o artigo permaneça verificável no futuro. A plaque celebrating the release of The Lost Blend Sessions mixtape. We offer you the best music from all over the world at lowest prices and highest quality!. Both have reached high heights but have declined a bit since then, but I’d say Jay Z overall has had a more well rounded discography with less blunders. Contains explicit content. Get Off My Dick feat. Understand Me 05. West is among the most critically acclaimed musicians of the 21st century, with his music having spanned a broad range of styles, incorporating an eclectic range of influences including hip hop, soul, baroque pop, electro, indie rock, synth. Search our database - Magnet4You. Download Jay-Z Torrent at TorrentFunk. COMPLETE STAR CAST iTUNES DISCOGRAPHY (2016-18). jay-z goes old skool in this joint, ''feelin' it'' old skool beatz old skool rappers reasonable doubt. December 4th 3. Missy Elliott – Discography (1997 – 2006) [FLAC] July 20, 2011. Drake - Discography (2009-2015) [FLAC][viola62] magnet links and files to download. Mark is also one half of Rae & Christian. Jay Z yanks most of his music catalog from Spotify. Commentary: Here's why Tidal is my music service of choice. 1, Elemental EP (10th Anniversary Edition 24Bit. Birth Certificate 7. Direct download via magnet link. 0 Total Size: 399. The singles discography of American rapper Jay-Z consists of singles, featured singles, collaborative singles, and promotional singles. 9 MB Kanye West-Studio Discography. Purchasable with gift card Buy Digital Send as Gift Full Digital Discography. Suck My Balls You Fat Cunt [feat. (Out Of Body Experience), Astroblacked, The Raw Tape, Weapon Of The Future LP, AstroNoMix, Jay-Z - The Real Album (Astronote Remixes), Jay Electronica - Exhibit C (Astronote Remix), Drake - Over (Astronote Remix), and 1 more. Jay-z & Alicia Keys - Empire State Of Mind (Réédit By Franck Cassy) by Franck Cassy, released 28 April 2019 FLAC and more. Leaves' Eyes - King of Kings (Ltd. We have 1000 Discography Music torrents for you!. Birth Certificate 7. Sauce Money 09. Format: Flac – Quality: Lossless – 3,8 GB 2009 – Jay-Z feat. Listen to albums and songs from JAY-Z. Tom Ford (Chopped and Screwed) 4. The Story of O. The Who – Anyway, Anyhow, Anywhere 1965-1966 24 bit Vinyl Rip Year Of Release: 2017 Genre: Rock Format: Flac, Tracks Bitrate: lossless, 24bit Sample Rate: 96000Hz A. Missy Elliott – Discography (1997 – 2006) [FLAC] July 20, 2011. went from a Brooklyn street hustler to the savior of East Coast hip-hop to a tragic victim of the culture of violence he depicted so realistically on his records. favorite performers in flac format, for fans to listen to vinyl digitization - Vinyl rip, gourmets of the music world who want to listen to multi-channel music are offered - Audio-DVD, SACD, DTS 5. Behind The Ropes feat. It ain't gonna work. 0 Total Size: 399. Chrono Trigger Mashup) 3. yo idk if there is a thread for this, I searched but it kept telling me that the words I used were too short or too common lol. Listen to music from JAY-Z. G - Discography {FLAC} and also paved the way to popular success for other East Coast talents like Jay-Z and Nas. The singles discography of American rapper Jay-Z consists of singles, featured singles, collaborative singles, and promotional singles. Jay-Z - 99 Problems (Cool Version) by Cookin Soul, released 26 August 2006 FLAC and more. The Notorious B. Eddie Kendricks - Eddie Kendricks (1973) 1 Only Room for Two 2 Darling Come Back Home 3 Each Day I Cry a Little 4 Can't Help What I Am 5. Can't resist, Lmao at the. The World That We Live In by Sugaray Rayford & The Italian Royal Family, released 01 September 2017 1. Click "Order by Relevance" for exact results Minimum search is atleast 3 characters Use "word1 word2" for phrase search Use +word to force it in results Use -word to remove it from results. Hov is the owner of Swedish based streaming service TIDAL. wav Peak level 98. Jay-Z Son by Ralphy Gabbana, released 08 September 2013 1. 1 Dead Passengers 2 You Know So Well 3 Sleep on Needles 4 Suffused With Love 5 Side Two 6 Modern Nature 7 Virtue and Wine 8 On and Off Again 9 No One's Gonna Come 10 All Luck Ran Out 11 Things You Call Fate 12 Rosebud. Moment Of Clarity 9. 86 GB [Jpflac] 久石 譲 (Joe Hisaishi) - Spirited Away Suite [FLAC 24bit ⁄ 96kHz] 996 MB RADWIMPS - Weathering With You / Tenki no Ko Jay-Z - 4:44 (2017) [FLAC CD] katcr. 42 GB Kenny G - The Collection - [FLAC] [TFM] 411 MB Download torrent - Mpb FLAC | Fast and easy torrent search Download torrent mpb flac. 65GB] UPLOADED [16/44. Set for release in September, RAISE VIBRATION will mark Lenny Kravitz’s 11th studio album (CD and 2LPs in multiple standard and deluxe formats). flac 06 - I Don't Want To Hear Any More. JAY-Z - Public Service Announcement (Interlude) (02:46) 02. It had been rumored for years and it has finally arrived: a joint Beyonce-Jay-Z album. Come and download Lossless absolutely for free. Download Dope Discography (MP3) torrent or any other torrent from Mp3 category. Download : discography Torrents for Free, Downloads via Magnet Also Available in Listed Torrents Detail Page, TorrentDownloads. Direct download via magnet link. Yekatit -Funky Bijou RMX - free download The Selenites Band is a musical collective led by Obi Riddim aka Antoine Laloux. Jay-Z The Takeover dL Remix by the dL, released 22 July 2019 FLAC and more. flac 02 - I Dreamed There Was No War. Buy, preview and download over 19 million tracks in our store. Enigma - Return To Innocence (380 Midnight Mix) 03. Missy Elliott – Discography (1997 – 2006) [FLAC] Rap, Hip Hop, R&B. More Jay Z available on the site. com In just a few short years, the Notorious B. The Rulers Back 3. Signed by DJ Invasion Includes unlimited streaming of The Lost Blend Sessions: 2005 - 2016 w/ Jay-Z via the free Bandcamp app, plus high-quality download in MP3, FLAC and more. (Interlude) 11. Jay-Z - Discography (1996-2018) Ogg Rok produkcji / Year Of Release:(1996-2018) Gatunek / Genre: Hip Hop Czas trwania / Time: 000 Jakość / Quality: Ogg Vorbis Bitrate: 320 Kbps Całkowity rozmiar. Fast downloads. We have 1000 Discography Music torrents for you!. Come and experience your torrent treasure chest right here. Great torrent. FLAC and more. message board 5. Will be releasing tracks all of the time. The Trashy Talk Show Song (No Dignity), Parody Song Lyrics No Diggity' - The Very Best of Blackstreet Album Cover by. JAY-Z - The Hits Collection Volume One (International Version (Explicit)) Year Of Release: 2015 Format: Flac, Tracks Bitrate: lossless Sample Rate: 16bit/44. Tha Carter 3. December 4th (Craz Remix) 3. High quality Jay-Z music downloads from 7digital United Kingdom. Rihanna and Kanye West – Run This Town 2010 – Rihanna – Only Girl – In The World. Kanye West - Discography (60 Releases) - 2003-2013, MP3, M4A, 128-320 kbps자료요청 게시판의 자료입니다. She\'s Loving Me 2. 87 KB Exact Audio Copy V0. Drake - Discography (2009-2015) [FLAC] - 1508E7BF199D276CDF453ACD05C101AFD83506AB Download Torrent. 1 kHz Tracklist: 2006 - / CD Flac, Discography, Lossless, Various Artists, KaRaMusic. The singles discography of American rapper Jay-Z consists of singles, featured singles, collaborative singles, and promotional singles. Listen to all albums from Jay-Z online. Neil Young - Studio Discography 1968 - 2010 [FLAC] - Kitlope Neil Young 1960s 60s 1970s 70s 1980s 80s 1990s 90s 2000s 00s Decade Greatest Hits FLAC Kitlope Kitlope - Torrent search Eric Clapton - Clapton 2010 [FLAC] [h33t] - Kitlope: 20/12/2012: 356. Signed by DJ Invasion Includes unlimited streaming of The Lost Blend Sessions: 2005 - 2016 w/ Jay-Z via the free Bandcamp app, plus high-quality download in MP3, FLAC and more. Interlude 2. December 4th XXXII 3. Come and download discography absolutely for free. go to album. Chilly - Discography (34 CD) 1978-2008 MP3 320 kbps CBR | Disco,Dance | 34 CD | 2. 9 MB Kanye West-Studio Discography. Direct download via magnet link. Mariah Carey-Me I Am Mariah The Elusive Chanteuse-Limited Deluxe Edition-CD-FLAC-2014-PERFECT. Direct download via HTTP available as well. Debating How Much Soap It Takes to Thoroughly Warsh Your Truck 2. Jay-Z (Remixes) 2013 - The 20-20 Experience (Deluxe Edition) 2013 - The 20-20 Experience (The Complete Experience) 2013 - The 20-20 Experience 2 of 2 (Deluxe Edition) Singles: 2001 - Im Lovin It 2002 - Like I Love You 2003 - Cry Me A River 2003 - Rock Your Body 2003 - Señorita 2006 - My Love 2006 - SexyBack 2007 - I Think She Knows 2007. TOOL DISCOGRAPHY FLAC CD 2. By the end of June 2009, "Best I Ever Had," a promotional single, had climbed to number two on Billboard's Hot R&B/Hip-Hop Songs chart. Preview, buy and download high-quality music downloads of The Black Album by Jay-Z from 7digital United Kingdom - We have over 30 million high quality tracks in our store. Jaydiohead - 99 Anthems 3. Homegrown EP (2013) (320 kbps) 3. 0 % Test CRC F93C7837 Copy CRC F93C7837 Track not present in AccurateRip database Copy OK Track 10 Filename C:\EACRips\Jay-z - The Hits Collection, Vol1 (2010) [FLAC]\10 - Dirt Off Your. Детали релиза Kanye West (2000 - 2010) [FLAC (tracks +. When Jay-Z first made a series out of his best album, 2001's The Blueprint, it became a game of high expectations. By Your Side [Neptunes Remix] Релиз - kirill311x2, bvstudio Каждый. scary summer feat: lil kim skepta drake and blocboy jb mf doom lil wayne kendrick lamar jay z a tribe called quest pusha t. Jay-Z (Remixes) 2013 - The 20-20 Experience (Deluxe Edition) 2013 - The 20-20 Experience (The Complete Experience) 2013 - The 20-20 Experience 2 of 2 (Deluxe Edition) Singles: 2001 - Im Lovin It 2002 - Like I Love You 2003 - Cry Me A River 2003 - Rock Your Body 2003 - Señorita 2006 - My Love 2006 - SexyBack 2007 - I Think She Knows 2007. 8 albums and 50 mixtapes later and he still sucks but, whatever trips your trigger. go to album. - Swagga Like Us 6. flac 05 - Guillty Of The Crime. High quality Jay-Z MP3 downloads from 7digital United States. Tha Carter III is an official album that was released by Lil Wayne on June 10th, 2008. Under Pressure 10. Purchasable with gift card Buy Digital Send as Gift Full Digital Discography. flac 07 - Waiting In The Weeds. And Then What - Instrumental 04. go to album. Downlaod Jay-Z discography greatest hits 320kbps albums itunes m4a cds Se encuentra dentro de los artistas de hip-hop más exitosos económicamente en USA y internacionalmente, poseyendo un patrimonio neto de bastante más de $500 millones en 2012. "Low," the song that got the whole process started, developed into a smooth funk showcase;. Neil Young - Studio Discography 1968 - 2010 [FLAC] - Kitlope Neil Young 1960s 60s 1970s 70s 1980s 80s 1990s 90s 2000s 00s Decade Greatest Hits FLAC Kitlope Kitlope - Torrent search Eric Clapton - Clapton 2010 [FLAC] [h33t] - Kitlope: 20/12/2012: 356. Timbaland - Discography (1997-2009) FLAC. Pass the Roc 06. Blueprint 2 (Jay - Z Ft. 98 MB Jay-Z - The Blueprint 2 The Gift & The Curse/JayZ - What They Gonna Do Part II Bonus Track. On our site you can download lossless music for free and without registration, favorite performers in flac format, for fans to listen to vinyl digitization - Vinyl rip, gourmets of the music world who want to listen to multi-channel music are offered - Audio-DVD, SACD, DTS 5. 33GB LINKIN PARK - DISCOGRAPHY @320Kbps CbR Mp3 [TuGAZx] 1. Feel free to post any comments about this torrent, including links to Subtitle, samples, screenshots, or any other relevant information. 1 kHz (Tracks) Artist: Jay-Z Title: American Gangster Released: 2007/2016 Style: Rap, Hip-Hop RAR Size: 759 Mb. By the end of June 2009, "Best I Ever Had," a promotional single, had climbed to number two on Billboard's Hot R&B/Hip-Hop Songs chart. jay-z goes old skool in this joint, ''feelin' it'' old skool beatz old skool rappers reasonable doubt. Music HD redclothz1 13-04-2011, 00:26 Jay-Z - Official Discography Country: USA Genre: Hip-Hop 2004 - Collision Course (Jay-Z & Llinkin Park) Live & Soundtrack 1998 - Streets Is Watching [Soundtrack] 2001 - Unplugged Compilation. Click "Order by Relevance" for exact results Minimum search is atleast 3 characters Use "word1 word2" for phrase search Use +word to force it in results Use -word to remove it from results. We have 1000 Jay-Z Television torrents for you!. Feel free to post any comments about this torrent, including links to Subtitle, samples, screenshots, or any other relevant information. Jay-Z - Discography (1996-2013) {FLAC} • MUZYKA - MP3 - FLAC • pliki użytkownika costek przechowywane w serwisie Chomikuj. Kelly - Definition Of A Hotti. When Am I Going To Make A Living 06. 65GB] UPLOADED [16-44. 98 GiB, ULed by vtwin88cube: 14: 5: Porn. The Brooklyn native rapper Jay-Z had success on the Billboard Hot 100 with singles from his debut studio album Reasonable Doubt. 99 for standard definition audio and $19. Boxes can be used to display things like location info, store hours, pictures, ads, etc. Paying supporters also get unlimited streaming via the free Bandcamp app. Explore releases from Jay-Z at Discogs. Download Jay-Z Torrent at TorrentFunk. 65GB] UPLOADED [16/44. Discography (FLAC) torrent or any other torrent from category. Shawn Corey Carter), более известный как Jay-z (англ. 88GB Gorillaz - Discography (2001-2012) FLAC [MuSi] 2. Drake Discography (2009 2015) [FLAC] DOWNLOAD (Mirror #1) Jeeja Hai Rangeela 2 Full Movie Hd 1080p Free Download Utorrent Movies. Get all 41 Judah releases available on Bandcamp and save 35%. Artist: Sade Title Of Album: Discography Japanese Editions Year Of Release: 1984-2011 Label: Epic, Sony Japan Country: UK (London, England) Genre: R&B, Soul, Smooth Jazz, Pop, Adult Contempo. Sound Tribe Sector Nine (STS9) - Discography 1998-2018 (1320 Records) MP3 320kbps CBR and FLAC Lossless. 42 GB Kenny G - The Collection - [FLAC] [TFM] 411 MB Download torrent - Mpb FLAC | Fast and easy torrent search Download torrent mpb flac. cue)] Скачать. Thank You (Jay-Z medley) by The Soul Rebels, released 03 December 2013. Moment of Clarity 6. Jay-Z The Takeover dL Remix by the dL, released 22 July 2019 FLAC and more. Eddie Kendricks - Eddie Kendricks (1973) 1 Only Room for Two 2 Darling Come Back Home 3 Each Day I Cry a Little 4 Can't Help What I Am 5. http:// The top100 torrents from The Pirate Bay en Tue, 10 Dec 2019 08:00:09 +0100 Tue, 10 Dec 2019 08:00:09 +0100 http://blogs. Come and download discography absolutely for free. American Ironman by Chong Wizard, released 01 January 2008 1. cue, log Bitrate: lossless Sample Rate: 16 Bit/44. Come and download Lossless absolutely for free. Download Beyoncé discography greatest hits 320kbps 1 link mega itunes m4a Una autodenominada "feminista actual", las canciones de Beyoncé se caracterizan comunmente por temas de amor, las relaciones y la monogamia, de esta forma como la sexualidad y la toma de poder femenina. Jay-Z) 2004 - Collision Course (feat. In 2003, at the peak of his career, Jay-Z released what he claimed would be his last album, "The Black Album" to international acclaim. Paying supporters also get unlimited streaming via the free Bandcamp app. Mark is the man behind Grand Central Records and one of the originators of the Fat City shop in Manchester. Jay-Z - Drunk in Love (Max RubaDub Remix). The Blueprint trilogy and Reasonable Doubt are. DAPATKAN BERITA DAN DOWNLOAD MUSIC GRATIS DI SINI. Raekwon (Kevlaar 7 Remix) 4. Find Jay-Z discography, albums and singles on AllMusic. Jay-Z, and Lil Wayne. Picasso Baby (Chopped and Screwed) 3. This box is a note. Ghostface killah- Apollo kids Ft. Song Cry 10. flac CD-2 01 - Long Road Out Of Eden. Work It Out dL Edit Speedometer (Beyonce Cover) Jul 2019. Enjoy So after tidal messed up I spent a while searching for links and this is what I’ve got. BONUS TRACK: 99 Problems (Joan Jett Remix snippet) by Paul Nice, released 18 September 2014 from The Black Album Remix / Jay - Z by Paul Nice vs Jay-Z. Jay-Z) by Pollie Pop, released 01 February 2002. Chrono Trigger Mashup) 4. In 2003, at the peak of his career, Jay-Z released what he claimed would be his last album, "The Black Album" to international acclaim. Legacy Download 320 KBPS Download M4A Download FLAC. Some of them have been made famous internationally being sampled by popular artists like Damian Marley, Nas, Jay Z … who helped the recognizing of this regional culture and gift. FVVN Threat 8. By Your Side [Neptunes Remix] Релиз - kirill311x2, bvstudio Каждый. Artist: Sade Title Of Album: Discography Japanese Editions Year Of Release: 1984-2011 Label: Epic, Sony Japan Country: UK (London, England) Genre: R&B, Soul, Smooth Jazz, Pop, Adult Contempo. Unknown Lorem ipsum dolor sit amet, consectetuer adipiscing elit. En el ámbito, sus fluídas y enormemente coreografiadas actuaciones llevaron a los críticos a aclamarla como. Hov is the owner of Swedish based streaming service TIDAL. Download Jay-Z Discography 320kbps torrent or any other torrent from Audio > Music Direct download via magnet link. An Encore In Time (Jay-Z vs. Commentary: Here's why Tidal is my music service of choice. Holy Grail 5. West is among the most critically acclaimed musicians of the 21st century, with his music having spanned a broad range of styles, incorporating an eclectic range of influences including hip hop, soul, baroque pop, electro, indie rock, synth. Preview, buy and download high-quality music downloads of The Black Album by Jay-Z from 7digital United Kingdom - We have over 30 million high quality tracks in our store. Drake - Discography (2009-2015) [FLAC] - 1508E7BF199D276CDF453ACD05C101AFD83506AB Download Torrent. Sauce Money 08. The Remix Legacy feat. Buy Digital Discography €364. Like Biggie did on Life After Death, Jay-Z diversifies his style here--with the Timbaland-laced "Nigga What, Nigga Who" and the dialogue "Coming of Age" (which revisits the young hustler from Jay-Z's first LP, Reasonable Doubt)--demonstrating that even when experimenting with flow, he can still crush his peers. Ut enim ad minim veniam, quis nostrud exercitation ullamco. G - Discography {FLAC} and also paved the way to popular success for other East Coast talents like Jay-Z and Nas. Linkin Park The Very Best Of Linkin Park (2015) FLAC LOSSLESS 16bit-44kHz Tracklist: 01. flac 07 - Waiting In The Weeds. 99 for high definition audio—these artists are looking to take a stand against free music. 99 prebeta 4 from 23. Jaydiohead - Wrong Prayer 2. Thanks to big-name owners, such as Jay-Z, Kanye West, Daft Punk, Coldplay and Rihanna, the brand new music streaming service TIDAL is making waves across the internet, a joke you'll be sure to read more than once today. Mariah Carey - Merry Christmas 1994/09. 좋은 자료에는 "좋아요!" / 광고, 불량 자료는 "별로에요"를 눌러주세요! 비회원도 가능!. Joey Nolfi. 03 - Busy Being Fabulous. Paying supporters also get unlimited streaming via the free Bandcamp app. 33GB LINKIN PARK - DISCOGRAPHY @320Kbps CbR Mp3 [TuGAZx] 1. Direct download via HTTP available as well. Ignorant Shit 5. Jay-Z, and Lil Wayne. 2017-2020 Music Lovers Paradise hdmusic. Beyoncé feat. Get all 100 Achromatic Residue releases available on Bandcamp and save 30%. Jay-Z - Official Discography (1996-2013) {FLAC} vtwin88cube. Kanye west - Niggas in paris (Dorian M edit) plus high-quality download in MP3, FLAC and more. 08 - Never Let Me Down (feat. Enjoy So after tidal messed up I spent a while searching for links and this is what I’ve got. Using BitTorrent is legal. 33GB LINKIN PARK - DISCOGRAPHY @320Kbps CbR Mp3 [TuGAZx] 1. But with 'Bey-Z', I wanted to pay tribute to two artists in this world who have inspired me artistically, but also for their work ethic. flac) Rip Chicano Common Pomona Inglewood Texas Cypress Hill 2 Live Crew Connecticut C-Bo Orlando Gospel Dirty Rap Circle Of Tyrants Deutsch Hip-Hop Qwel Jay-Z Mount Vernon 2018 South Australia Freestyle Fellowship Swollen Members Andre Nickatina Destiny's. The newest artist on the Sol Life label, Sacramento's Philharmonik makes future soul/hip-hop that's intricate, smooth, & funky. Coming 2007 - The Solution 2009 - The B. 0 % Test CRC F93C7837 Copy CRC F93C7837 Track not present in AccurateRip database Copy OK Track 10 Filename C:\EACRips\Jay-z - The Hits Collection, Vol1 (2010) [FLAC]\10 - Dirt Off Your. Depeche Mode – Mode (The Definitive Depeche Mode Studio Collection) (2020) [18CD Box Set] David Bowie – Loving The Alien 1983-1988 (2018) [24bit Hi-Res]. Bellows Jay-Z: ‘If you escaped what I’ve escaped / You’d be in Paris getting fucked up too / Let’s get faded, Le Meurice for like five days’. Chrono Trigger Mashup) 3. Entertainment Weekly relying on “FLAC,” a “more Jay Z’s discography is still available to stream on Apple Music and. Beyoncé feat. Rippin' It Up, Right? feat. Paying supporters also get unlimited streaming via. And Then What - Acapella 05. Picasso Baby (Chopped and Screwed) 3. The project, which is the third album in Weezy‘s Tha Carter series, consists of sixteen songs with another seven songs on the deluxe edition. Download new jazz album by Beyoncé - Discography 2003-2011 (12 CD) FLAC from jazzmusic. Download Kanye West-Studio Discography-FLAC Torrent. download old school hip-hop. and since its inception people have doubted his plans with the streaming service but Tidal is here to stay. Entertainment Weekly relying on "FLAC," a "more Jay Z's discography is still available to stream on Apple Music and. Download a copy on iTunes HERE or stream it on Spotify. Yekatit -Funky Bijou RMX - free download The Selenites Band is a musical collective led by Obi Riddim aka Antoine Laloux. Access hundreds of high fidelity Live Phish concerts at legendary venues. Sauce Money 07. Ha vendido precisamente 75 millones de álbumes a nivel mundial, y ha recibido diecinueve premios Grammy por su trabajo musical, de esta forma como. Yekermo Sew 4. Ludacris) 14 - School Spirit (Skit 1) 15 - School Spirit 16 - School Spirit (Skit 2) 17 - Lil Jimmy (Skit) 18 - Two Words (feat. Holy Grail 5. Interlude 2. Jay-Z x Nas - Black Republican 3. We've completely downloaded and checked this torrent on 2011-08-21 janet jackson discography torrent download 17:40:48 Jay Z Full Discography + Mixtape Albums + Mixtapes torrent download locations Direct Download Jay Z Full Discography + Mixtape Albums + Mixtapes. Includes unlimited streaming via the free Bandcamp app, plus high-quality downloads of It's A Full Moon, I'm A Werewolf, Flip Wilson Vol. If they wanna sue TPB, I say go ahead and try. Singles/2009 - Jay-Z with Kanye West & Rihanna - Run This Town/Jay-Z - Run This Town. Brian Culbertson Discography [1. 2017-2020 Music Lovers Paradise hdmusic. Мы хотим, чтобы друзья, однокурсники, одноклассники, соседи и коллеги всегда. Jay-Z, and Lil Wayne. 1 1 1 1 FREE XXXTENTACION x SMOKEPURPP x LIL PUMP TYPE BEAT 2017 (prod. As referências deste artigo necessitam de formatação. It ain't gonna work. Chrono Trigger Mashup) 6. INDEX OF ARTISTS DISCOGRAPHY #A-Z | NO REPLY or REQUEST Jay-Jay Johanson Jay Sean Jay Z Jeff Beck - Emotion And Commotion [2010] [FLAC] My Chemical Romance. Some of them have been made famous internationally being sampled by popular artists like Damian Marley, Nas, Jay Z … who helped the recognizing of this regional culture and gift. and since its inception people have doubted his plans with the streaming service but Tidal is here to stay. WHERE TF R U 7. Filename C:\EACRips\Jay-z - The Hits Collection, Vol1 (2010) [FLAC]\09 - Empire State Of Mind (featuring Alicia Keys). Jay-Z later founded Roc-A-Fella Records with close friends Damon Dash and Kareem "Biggs" Burke and released his debut studio album Reasonable Doubt in June 1996. Pirouette 2. Rippin’ It Up, Right? feat. Includes unlimited streaming via the free Bandcamp app, plus high-quality downloads of JusFine- Dj Tameil, Jockin' Jay-Z- Dj Tameil, Jeezy Theme- Dj Tameil, It's Me Bitches (Dirty)- Dj Tameil, It's Me Bitches (Clean)- Dj Tameil, Irreplaceable- Dj Tameil, How Many Times- Dj Tameil, Funky Dance- Dj Tameil, and 22 more. discography.